Accident Man [2018] [Latino] [1080p] [UB+]

Mike Fallon, el “hombre accidente”, es un asesino de sangre fría, y el mejor en lo suyo. Sus golpes metódicos desconciertan continuamente a la policía, a la vez que deleitan a sus clientes. Pero cuando un ser querido sea llevado a los suburbios de Londres y asesinado por su propio equipo, Fallon se verá obligado a romper con toda la vida que conocía para vengar a la única persona que le importaba de verdad.

Título original: Accident Man
Año: 2018
Duración: 101 min.
País: Reino Unido Reino Unido
Dirección: Jesse V. Johnson
Guion: Scott Adkins, Stu Small (Cómic: Pat Mills, Tony Skinner)
Música: Sean Murray
Fotografía: Duane McClunie
Reparto: Scott Adkins, Ray Stevenson, Michael Jai White, Ashley Greene, David Paymer, Ray Park, Amy Johnston, Perry Benson, Nick Moran, Ross O’Hennessey, Tim Man, Leon Finnan, Brooke Johnston, Stephen Donald, Ravi Aujla, Aaron Ward
Productora: Six Demon Films
Género: Acción. Thriller | Crimen

General
Unique ID : 220282071869070479601856497283532822993 (0xA5B8C8A9E5C3C90382844332A53399D1)
Complete name : Accident Man [1080p][Latino].mkv
Format : Matroska
Format version : Version 4 / Version 2
File size : 3.94 GiB
Duration : 1 h 45 min
Overall bit rate : 5 343 kb/s
Encoded date : UTC 2018-07-13 04:51:48
Writing application : mkvmerge v6.4.1 (‘Omega Point’) built on Sep 16 2013 22:05:10
Writing library : libebml v1.3.0 + libmatroska v1.4.1

Video
ID : 1
Format : AVC
Format/Info : Advanced Video Codec
Format profile : Main@L4
Format settings : CABAC / 4 Ref Frames
Format settings, CABAC : Yes
Format settings, ReFrames : 4 frames
Codec ID : V_MPEG4/ISO/AVC
Duration : 1 h 45 min
Bit rate : 4 555 kb/s
Width : 1 920 pixels
Height : 804 pixels
Display aspect ratio : 2.40:1
Frame rate mode : Constant
Frame rate : 23.976 (24000/1001) FPS
Color space : YUV
Chroma subsampling : 4:2:0
Bit depth : 8 bits
Scan type : Progressive
Bits/(Pixel*Frame) : 0.123
Stream size : 3.25 GiB (82%)
Writing library : x264 core 148 r2708 86b7198
Encoding settings : cabac=1 / ref=1 / deblock=1:0:0 / analyse=0x1:0x111 / me=hex / subme=2 / psy=1 / psy_rd=1.00:0.00 / mixed_ref=0 / me_range=16 / chroma_me=1 / trellis=0 / 8x8dct=0 / cqm=0 / deadzone=21,11 / fast_pskip=1 / chroma_qp_offset=0 / threads=12 / lookahead_threads=4 / sliced_threads=0 / nr=0 / decimate=1 / interlaced=0 / bluray_compat=0 / constrained_intra=0 / bframes=3 / b_pyramid=2 / b_adapt=1 / b_bias=0 / direct=1 / weightb=1 / open_gop=0 / weightp=1 / keyint=240 / keyint_min=24 / scenecut=40 / intra_refresh=0 / rc_lookahead=10 / rc=abr / mbtree=1 / bitrate=4555 / ratetol=1.0 / qcomp=0.60 / qpmin=0 / qpmax=69 / qpstep=4 / vbv_maxrate=20000 / vbv_bufsize=25000 / nal_hrd=none / filler=0 / ip_ratio=1.40 / aq=1:1.00
Default : Yes
Forced : No
Color range : Limited
Color primaries : BT.709
Transfer characteristics : BT.709
Matrix coefficients : BT.709
Statistics Tags Issue : mkvmerge v15.0.0 (‘Duel with the Devil’) 64-bit 2018-07-13 01:38:14 / mkvmerge v6.4.1 (‘Omega Point’) built on Sep 16 2013 22:05:10 2018-07-13 04:51:48
FromStats_BitRate : 4509226
FromStats_Duration : 01:45:29.323000000
FromStats_FrameCount : 151752
FromStats_StreamSize : 3567543499

Audio #1
ID : 2
Format : AC-3
Format/Info : Audio Coding 3
Codec ID : A_AC3
Duration : 1 h 45 min
Bit rate mode : Constant
Bit rate : 192 kb/s
Channel(s) : 2 channels
Channel positions : Front: L R
Sampling rate : 48.0 kHz
Frame rate : 31.250 FPS (1536 SPF)
Bit depth : 16 bits
Compression mode : Lossy
Delay relative to video : -5 ms
Stream size : 145 MiB (4%)
Title : LATINO
Language : Spanish
Service kind : Complete Main
Default : Yes
Forced : Yes
Statistics Tags Issue : mkvmerge v15.0.0 (‘Duel with the Devil’) 64-bit 2018-07-13 01:38:14 / mkvmerge v6.4.1 (‘Omega Point’) built on Sep 16 2013 22:05:10 2018-07-13 04:51:48
FromStats_BitRate : 192000
FromStats_Duration : 01:45:29.184000000
FromStats_FrameCount : 197787
FromStats_StreamSize : 151900416

Audio #2
ID : 4
Format : AC-3
Format/Info : Audio Coding 3
Codec ID : A_AC3
Duration : 1 h 45 min
Bit rate mode : Constant
Bit rate : 640 kb/s
Channel(s) : 6 channels
Channel positions : Front: L C R, Side: L R, LFE
Sampling rate : 48.0 kHz
Frame rate : 31.250 FPS (1536 SPF)
Bit depth : 16 bits
Compression mode : Lossy
Delay relative to video : -5 ms
Stream size : 483 MiB (12%)
Title : Surround
Language : English
Service kind : Complete Main
Default : No
Forced : No
Statistics Tags Issue : mkvmerge v15.0.0 (‘Duel with the Devil’) 64-bit 2018-07-13 01:38:14 / mkvmerge v6.4.1 (‘Omega Point’) built on Sep 16 2013 22:05:10 2018-07-13 04:51:48
FromStats_BitRate : 640000
FromStats_Duration : 01:45:29.312000000
FromStats_FrameCount : 197791
FromStats_StreamSize : 506344960

Text
ID : 3
Format : UTF-8
Codec ID : S_TEXT/UTF8
Codec ID/Info : UTF-8 Plain Text
Title : COMPLETO
Language : Spanish
Default : No
Forced : No
Statistics Tags Issue : mkvmerge v15.0.0 (‘Duel with the Devil’) 64-bit 2018-07-13 01:38:14 / mkvmerge v6.4.1 (‘Omega Point’) built on Sep 16 2013 22:05:10 2018-07-13 04:51:48
FromStats_BitRate : 62
FromStats_Duration : 01:40:17.778000000
FromStats_FrameCount : 1379
FromStats_StreamSize : 46758

Menu
00:00:00.000 : :00:00:00.000
00:06:02.153 : :00:06:02.153
00:15:28.845 : :00:15:28.845
00:17:56.450 : :00:17:56.367
00:21:30.456 : :00:21:30.456
00:28:05.559 : :00:28:05.559
00:33:13.158 : :00:33:13.158
00:42:36.554 : :00:42:36.554
00:46:16.274 : :00:46:16.273
00:53:10.729 : :00:53:10.729
00:58:43.145 : :00:58:43.145
01:05:58.872 : :01:05:58.872
01:11:50.306 : :01:11:50.306
01:15:08.379 : :01:15:08.379
01:26:46.201 : :01:26:46.201
01:33:46.204 : :01:33:46.204

Enlaces intercambiables

http://katfile.com/0i10gjk88jrv
http://katfile.com/krd2u7wd0thr
http://katfile.com/v7jiawo7mue7
http://katfile.com/gwpqiq8dsi4y

https://dailyuploads.net/xp0azweubrdq
https://dailyuploads.net/0jcs9nlw8bzf
https://dailyuploads.net/kq67ucvwzqgs
https://dailyuploads.net/m8k02pnwt0j3

http://ul.to/ct7rz7k5
http://ul.to/txji84vt
http://ul.to/la0zofeh
http://ul.to/vu4pvqz0

https://openload.co/f/jrTtgattIEk
https://openload.co/f/XYOnsK59jTc
https://openload.co/f/fScoK1IS8eU
https://openload.co/f/AguwEEOIp08

Mostrar enlaces de Uptobox No cerrar la ventana hasta cumplir el tiempo Por favor no cerrar la ventana Enlaces de Uptobox

>>>Descargar Accident Man [2018] [Latino] [1080p] [UB+]<<<
48 Visitas

Temas del mismo autor:

Deja un comentario