¿Cómo matar a un esposo muerto? [2017] [Latino] [HDRip] [Un link] [UB+]

Filme inspirado en hechos reales sobre la experiencia de una mujer, madre de familia, que debe enfrentarse a las adversidades que conllevan la separación de un hombre poderoso y prepotente que decide arruinarle la vida, aún, después de muerto.

Título original: ¿Cómo matar a un esposo muerto?aka
Año: 2017
Duración: 97 min.
País: México México
Dirección: Conrado Martinez, Joel Núñez
Guion: Carlos Olivares, Daniela Zavala (Historia: Patricia Solano)
Fotografía: Emiliano Chaparro
Reparto: Mara Escalante, Eduardo España, Francisco Gattorno, César Évora, María Fernanda García, Gloria Izaguirre, Analay Rodríguez, Daniela Zavala, Eduardo Rodríguez
Productora: Dragón Multimedia / DMM Films
Género: Comedia. Drama | Basado en hechos reales. Comedia dramática. Familia

General
Complete name : Cómo.Matar.a.Un.Esposo.Muerto.HDRip.Latino.avi
Format : AVI
Format/Info : Audio Video Interleave
Format profile : OpenDML
File size : 1.77 GiB
Duration : 1 h 38 min
Overall bit rate : 2 573 kb/s
Writing application : Lavf53.32.100
Original source form/Name : Cómo.Matar.a.Un.Esposo.Muerto

Video
ID : 0
Format : AVC
Format/Info : Advanced Video Codec
Format profile : High@L4.1
Format settings : CABAC / 2 Ref Frames
Format settings, CABAC : Yes
Format settings, ReFrames : 2 frames
Codec ID : H264
Duration : 1 h 38 min
Bit rate : 2 114 kb/s
Width : 720 pixels
Height : 308 pixels
Display aspect ratio : 2.35:1
Frame rate : 23.976 (24000/1001) FPS
Color space : YUV
Chroma subsampling : 4:2:0
Bit depth : 8 bits
Scan type : Progressive
Bits/(Pixel*Frame) : 0.398
Stream size : 1.45 GiB (82%)
Writing library : x264 core
Color range : Limited
Color primaries : BT.601 NTSC
Transfer characteristics : BT.709
Matrix coefficients : BT.601

Audio
ID : 1
Format : AC-3
Format/Info : Audio Coding 3
Codec ID : 2000
Duration : 1 h 38 min
Bit rate mode : Constant
Bit rate : 448 kb/s
Channel(s) : 6 channels
Channel positions : Front: L C R, Side: L R, LFE
Sampling rate : 48.0 kHz
Frame rate : 31.250 FPS (1536 SPF)
Bit depth : 16 bits
Compression mode : Lossy
Stream size : 316 MiB (17%)
Alignment : Aligned on interleaves
Interleave, duration : 32 ms (0.77 video frame)
Service kind : Complete Main

Un link sin comprimir

http://katfile.com/31okhaxcijyq
http://ul.to/bvs7asub
https://dailyuploads.net/hfsaqsko7f7u

Mostrar enlaces de Uptobox No cerrar la ventana hasta cumplir el tiempo Por favor no cerrar la ventana Enlaces de Uptobox

Ver Online

https://openload.co/f/2NSqf4p1bCc

>>>Descargar ¿Cómo matar a un esposo muerto? [2017] [Latino] [HDRip] [Un link] [UB+]<<<
75 Visitas

Temas del mismo autor:

Deja un comentario