El final de todo [2018] [Latino] [1080p] [UB+]

Tras un misterioso cataclismo, un hombre se propone atravesar el país de punta a punta afrontando mil y un peligros con tal de reencontrarse con su novia embarazada.

Título original: How It Ends
Año: 2018
Duración: 113 min.
País: Estados Unidos Estados Unidos
Dirección: David M. Rosenthal
Guion: Brooks McLaren
Música: Atli Örvarsson
Fotografía: Peter Flinckenberg
Reparto: Theo James, Kerry Bishé, Forest Whitaker, Kat Graham, Mark O’Brien, Eric Keenleyside, Grace Dove, Nancy Sorel, RJ Fetherstonhaugh, Lanie McAuley, Josh Cruddas, Aaron Hughes
Productora: Coproducción Estados Unidos-Canadá; Sierra Pictures / Paul Schiff Productions. Distribuida por Netflix
Género: Thriller. Ciencia ficción | Futuro postapocalíptico

General
Unique ID : 174333212923030516215559963155014030749 (0x83275B028139C85E9ABA058C7367159D)
Complete name : How it Ends [1080p][Latino].mkv
Format : Matroska
Format version : Version 4 / Version 2
File size : 2.79 GiB
Duration : 1 h 53 min
Overall bit rate mode : Variable
Overall bit rate : 3 526 kb/s
Encoded date : UTC 2018-07-13 07:31:48
Writing application : mkvmerge v6.4.1 (‘Omega Point’) built on Sep 16 2013 22:05:10
Writing library : libebml v1.3.0 + libmatroska v1.4.1
Video
ID : 1
Format : AVC
Format/Info : Advanced Video Codec
Format profile : Main@L4
Format settings : CABAC / 3 Ref Frames
Format settings, CABAC : Yes
Format settings, ReFrames : 3 frames
Codec ID : V_MPEG4/ISO/AVC
Duration : 1 h 53 min
Bit rate mode : Variable
Bit rate : 3 160 kb/s
Maximum bit rate : 4 740 kb/s
Width : 1 920 pixels
Height : 1 080 pixels
Display aspect ratio : 16:9
Frame rate mode : Constant
Frame rate : 23.976 (24000/1001) FPS
Color space : YUV
Chroma subsampling : 4:2:0
Bit depth : 8 bits
Scan type : Progressive
Bits/(Pixel*Frame) : 0.064
Stream size : 2.43 GiB (87%)
Writing library : x264 core 148 r2715 7e75228
Encoding settings : cabac=1 / ref=3 / deblock=1:0:0 / analyse=0x1:0x111 / me=umh / subme=10 / psy=1 / psy_rd=1.00:0.00 / mixed_ref=1 / me_range=24 / chroma_me=1 / trellis=2 / 8x8dct=0 / cqm=0 / deadzone=21,11 / fast_pskip=1 / chroma_qp_offset=-2 / threads=8 / lookahead_threads=1 / sliced_threads=0 / nr=0 / decimate=1 / interlaced=0 / bluray_compat=0 / stitchable=1 / constrained_intra=0 / bframes=2 / b_pyramid=0 / b_adapt=2 / b_bias=0 / direct=3 / weightb=1 / open_gop=0 / weightp=2 / keyint=48 / keyint_min=25 / scenecut=0 / intra_refresh=0 / rc_lookahead=48 / rc=2pass / mbtree=1 / bitrate=3160 / ratetol=1.0 / qcomp=0.50 / qpmin=6 / qpmax=51 / qpstep=4 / cplxblur=20.0 / qblur=0.5 / vbv_maxrate=4740 / vbv_bufsize=6320 / nal_hrd=vbr / filler=0 / ip_ratio=1.40 / aq=1:1.00
Default : Yes
Forced : No
Statistics Tags Issue : mkvmerge v16.0.0 (‘Protest’) 32-bit 2018-07-13 07:15:16 / mkvmerge v6.4.1 (‘Omega Point’) built on Sep 16 2013 22:05:10 2018-07-13 07:31:48
FromStats_BitRate : 3139811
FromStats_Duration : 01:53:13.162000000
FromStats_FrameCount : 162873
FromStats_StreamSize : 2666155664
Audio
ID : 2
Format : AC-3
Format/Info : Audio Coding 3
Codec ID : A_AC3
Duration : 1 h 53 min
Bit rate mode : Constant
Bit rate : 384 kb/s
Channel(s) : 6 channels
Channel positions : Front: L C R, Side: L R, LFE
Sampling rate : 48.0 kHz
Frame rate : 31.250 FPS (1536 SPF)
Bit depth : 16 bits
Compression mode : Lossy
Stream size : 311 MiB (11%)
Title : Español latino
Language : Spanish
Service kind : Complete Main
Default : No
Forced : No
Statistics Tags Issue : mkvmerge v16.0.0 (‘Protest’) 32-bit 2018-07-13 07:15:16 / mkvmerge v6.4.1 (‘Omega Point’) built on Sep 16 2013 22:05:10 2018-07-13 07:31:48
FromStats_BitRate : 384000
FromStats_Duration : 01:53:13.376000000
FromStats_FrameCount : 212293
FromStats_StreamSize : 326082048
Text
ID : 3
Format : UTF-8
Codec ID : S_TEXT/UTF8
Codec ID/Info : UTF-8 Plain Text
Title : Español latino [Forzados]
Language : Spanish
Default : No
Forced : Yes
Statistics Tags Issue : mkvmerge v16.0.0 (‘Protest’) 32-bit 2018-07-13 07:15:16 / mkvmerge v6.4.1 (‘Omega Point’) built on Sep 16 2013 22:05:10 2018-07-13 07:31:48
FromStats_BitRate : 0
FromStats_Duration : 01:47:07.379000000
FromStats_FrameCount : 22
FromStats_StreamSize : 475

Enlaces intercambiables

Mostrar enlaces de Uptobox No cerrar la ventana hasta cumplir el tiempo Por favor no cerrar la ventana Enlaces de Uptobox

http://katfile.com/apbxk576ysfc
http://katfile.com/rpcjkm6urx1l
http://katfile.com/g4tdbtq5ikxy

http://ul.to/nwpyf19n
http://ul.to/htqq366z
http://ul.to/fgwet2ai

https://openload.co/f/iQmiOwiD14w
https://openload.co/f/n5QDiyBdaXc
https://openload.co/f/lX8sH3vnh4s

https://dailyuploads.net/e7z859rhqsds
https://dailyuploads.net/wtvcuqwoaob6
https://dailyuploads.net/d7fxqcofxc8e

>>>Descargar El final de todo [2018] [Latino] [1080p] [UB+]<<<
107 Visitas

Temas del mismo autor:

Deja un comentario