El Show: Esta es tu muerte [2017] [Latino] [1080p] [Un link] [UB+]

Una mirada inquietante a un reality show de la televisión en el que los participantes acaban con su vida para disfrute del público. Un reality dónde un juego hará que las vidas de los participantes se pongan a favor de los juegos de la audiencia.

Título original: This Is Your Deathaka
Año: 2017
Duración: 104 min.
País: Estados Unidos Estados Unidos
Dirección: Giancarlo Esposito
Guion: Noah Pink, Kenny Yakkel
Música: Rich Walters
Fotografía: Paul Mitchnick
Reparto: Sarah Wayne Callies, Famke Janssen, Josh Duhamel, Giancarlo Esposito, Chelah Horsdal, Caitlin FitzGerald, Johannah Newmarch, Mark Brandon, Matthew Kevin Anderson, Chris Ellis, Lucia Walters, Nils Hognestad, Beatrice King, Clare Filipow, Giles Panton, Cory Gruter-Andrew
Productora: Dobre Films / Lighthouse Pictures / Weedon Media
Género: Drama | Cine independiente USA

General
Complete name : This Is Your Death (2017) 1080 Latino.mp4
Format : MPEG-4
Format profile : Base Media
Codec ID : isom (isom/iso2/avc1/mp41)
File size : 1.03 GiB
Duration : 1 h 45 min
Overall bit rate : 1 397 kb/s
Writing application : Lavf57.83.100

Video
ID : 1
Format : AVC
Format/Info : Advanced Video Codec
Format profile : High@L3.1
Format settings : CABAC / 5 Ref Frames
Format settings, CABAC : Yes
Format settings, ReFrames : 5 frames
Codec ID : avc1
Codec ID/Info : Advanced Video Coding
Duration : 1 h 44 min
Bit rate : 1 280 kb/s
Width : 1 920 pixels
Height : 1 040 pixels
Display aspect ratio : 1.85:1
Frame rate mode : Constant
Frame rate : 23.976 (24000/1001) FPS
Color space : YUV
Chroma subsampling : 4:2:0
Bit depth : 8 bits
Scan type : Progressive
Bits/(Pixel*Frame) : 0.027
Stream size : 951 MiB (91%)
Writing library : x264 core 148 r2643 5c65704
Encoding settings : cabac=1 / ref=5 / deblock=1:0:0 / analyse=0x3:0x113 / me=hex / subme=7 / psy=1 / psy_rd=1.00:0.00 / mixed_ref=1 / me_range=16 / chroma_me=1 / trellis=1 / 8x8dct=1 / cqm=0 / deadzone=21,11 / fast_pskip=1 / chroma_qp_offset=-2 / threads=8 / lookahead_threads=8 / sliced_threads=1 / slices=8 / nr=0 / decimate=1 / interlaced=0 / bluray_compat=0 / constrained_intra=0 / bframes=0 / weightp=2 / keyint=250 / keyint_min=23 / scenecut=40 / intra_refresh=0 / rc=abr / mbtree=0 / bitrate=1280 / ratetol=1.0 / qcomp=0.60 / qpmin=0 / qpmax=69 / qpstep=4 / ip_ratio=1.40 / aq=1:1.00

Audio
ID : 2
Format : AAC
Format/Info : Advanced Audio Codec
Format profile : LC
Codec ID : mp4a-40-2
Duration : 1 h 45 min
Duration_LastFrame : -11 ms
Bit rate mode : Constant
Bit rate : 128 kb/s
Channel(s) : 2 channels
Channel positions : Front: L R
Sampling rate : 48.0 kHz
Frame rate : 46.875 FPS (1024 SPF)
Compression mode : Lossy
Stream size : 96.4 MiB (9%)
Language : Spanish
Default : Yes
Alternate group : 1

Un link sin comprimir

http://katfile.com/9i5ozm83japq
http://ul.to/robfli6b
https://dailyuploads.net/ngy8lbd806hb

Mostrar enlaces de Uptobox No cerrar la ventana hasta cumplir el tiempo Por favor no cerrar la ventana Enlaces de Uptobox

Ver Online

https://openload.co/f/6Wkmk8GgOxA

>>>Descargar El Show: Esta es tu muerte [2017] [Latino] [1080p] [Un link] [UB+]<<<
60 Visitas

Temas del mismo autor:

Deja un comentario