Eres mi pasión [2018] [HDRip] [Latino] [Un link] [UB+]

¿Qué hacer cuando tu pasión te consume y pones en peligro todo lo que amas? Esa es la historia de Pedro Gallo, un hombre fanático del fútbol, tanto que desarrolla una pasión extrema que le impide llevar una vida normal y pone en riesgo todo lo que le importa: su trabajo, su familia y su matrimonio. Cuando su mujer lo corre de la casa y le pone un ultimátum: “El fútbol o yo”, él decide dar una vuelta a su vida y unirse a un grupo de apoyo para adictos, dándose cuenta que lo único que puede hacer para recuperar su vida es enfrentando su adicción, “su fútbol-holismo”. Versión mexicana de ‘El fútbol o yo’, película argentina de 2017.

Título original: Eres mi pasiónaka
Año: 2018
Duración: 100 min.
País: México México
Dirección: Anwar Safa
Guion: Javier Peñalosa (Historia: Marcos Carnevale, Adrián Suar, Riton Liebman, Gábor Rassov)
Música: Camilo Froideval
Fotografía: Guillermo Granillo
Reparto: Mariana Treviño, Mauricio Isaac, Juan Pablo Medina, Liz Gallardo, Norma Angélica, Patricia Reyes Spíndola, Silverio Palacios, Gabriel Nuncio
Productora: Alebrije Cine y Video
Género: Comedia | Fútbol. Remake

General
Complete name : Eres.mi.pasion.HDRip.Latino.avi
Format : AVI
Format/Info : Audio Video Interleave
File size : 1.86 GiB
Duration : 1 h 43 min
Overall bit rate : 2 573 kb/s
Writing application : VirtualDubMod 1.5.10.2 (build 2540/release)
Writing library : VirtualDubMod build 2540/release

Video
ID : 0
Format : AVC
Format/Info : Advanced Video Codec
Format profile : High@L4.1
Format settings : CABAC / 2 Ref Frames
Format settings, CABAC : Yes
Format settings, ReFrames : 2 frames
Codec ID : H264
Duration : 1 h 43 min
Bit rate : 2 116 kb/s
Width : 720 pixels
Height : 404 pixels
Display aspect ratio : 16:9
Frame rate : 23.976 (24000/1001) FPS
Color space : YUV
Chroma subsampling : 4:2:0
Bit depth : 8 bits
Scan type : Progressive
Bits/(Pixel*Frame) : 0.303
Stream size : 1.53 GiB (82%)
Writing library : x264 core
Color range : Limited
Color primaries : BT.601 NTSC
Transfer characteristics : BT.709
Matrix coefficients : BT.601

Audio
ID : 1
Format : AC-3
Format/Info : Audio Coding 3
Codec ID : 2000
Duration : 1 h 43 min
Bit rate mode : Constant
Bit rate : 448 kb/s
Channel(s) : 6 channels
Channel positions : Front: L C R, Side: L R, LFE
Sampling rate : 48.0 kHz
Frame rate : 31.250 FPS (1536 SPF)
Bit depth : 16 bits
Compression mode : Lossy
Stream size : 332 MiB (17%)
Alignment : Split accross interleaves
Interleave, duration : 42 ms (1.00 video frame)
Interleave, preload duratio : 500 ms
Service kind : Complete Main

Un link sin comprimir

http://katfile.com/b9napw1pny6f
http://ul.to/m1jib9al
https://dailyuploads.net/2rf70syr5kbt

Mostrar enlaces de Uptobox No cerrar la ventana hasta cumplir el tiempo Por favor no cerrar la ventana Enlaces de Uptobox

Ver Online

https://openload.co/f/O5rNJkM8IXQ

>>>Descargar Eres mi pasión [2018] [HDRip] [Latino] [Un link] [UB+]<<<
57 Visitas

Temas del mismo autor:

Deja un comentario