Godzilla: City on the Edge of Battle [2018] [Latino] [1080p] [UB+]

En el último verano del siglo XX los seres humanos descubrieron que no son los únicos que gobiernan el planeta Tierra, pues aparecen enormes criaturas conocidas como ?kaiju? y el ser definitivo que los destruye a todos: Godzilla. Debido a la batalla contra los monstruos que duró más de medio siglo, los humanos han experimentado una derrota tras otra hasta que, finalmente, deciden escapar de la Tierra. En el año 2048, solo aquellos seleccionados por la IA que controla el gobierno central pudieron subir a la nave emigrante intersideral Aratrum para dirigirse a Tau Ceti e, un planeta a 11,9 años luz del nuestro. Sin embargo, las diferencias en las condiciones ambientales son mucho peores de lo previsto y el nuevo mundo resulta ser uno imposible de habitar.

Título original: Gojira: kessen kidô zôshoku toshi
Año: 2018
Duración: 101 min.
País: Japón Japón
Dirección: Hiroyuki Seshita, Kobun Shizuno
Guion: Gen Urobuchi
Música: Takayuki Hattori
Fotografía: Animation
Reparto: Animation
Productora: Polygon Pictures / TOHO Animation. Distribuida por Netflix
Género: Animación. Ciencia ficción. Acción | Monstruos. Secuela
Grupos: Godzilla Novedad
Web oficial: https://www.netflix.com/title/80180376

General
Unique ID : 186581123027428040495241924089971824093 (0x8C5E3799BCB3BE74870F8B8D6CBD55DD)
Complete name : D:\GODZILLA City on the Edge of Battle [1080p] Latino.mkv
Format : Matroska
Format version : Version 4 / Version 2
File size : 2.75 GiB
Duration : 1 h 40 min
Overall bit rate mode : Variable
Overall bit rate : 3 905 kb/s
Encoded date : UTC 2018-07-18 07:56:02
Writing application : mkvmerge v6.4.1 (‘Omega Point’) built on Sep 16 2013 22:05:10
Writing library : libebml v1.3.0 + libmatroska v1.4.1

Video
ID : 1
Format : AVC
Format/Info : Advanced Video Codec
Format profile : Main@L4
Format settings : CABAC / 3 Ref Frames
Format settings, CABAC : Yes
Format settings, ReFrames : 3 frames
Codec ID : V_MPEG4/ISO/AVC
Duration : 1 h 40 min
Bit rate mode : Variable
Bit rate : 3 160 kb/s
Maximum bit rate : 4 740 kb/s
Width : 1 920 pixels
Height : 1 080 pixels
Display aspect ratio : 16:9
Frame rate mode : Constant
Frame rate : 24.000 FPS
Color space : YUV
Chroma subsampling : 4:2:0
Bit depth : 8 bits
Scan type : Progressive
Bits/(Pixel*Frame) : 0.063
Stream size : 2.15 GiB (78%)
Writing library : x264 core 148 r2715 7e75228
Encoding settings : cabac=1 / ref=3 / deblock=1:0:0 / analyse=0x1:0x111 / me=umh / subme=10 / psy=1 / psy_rd=1.00:0.00 / mixed_ref=1 / me_range=24 / chroma_me=1 / trellis=2 / 8x8dct=0 / cqm=0 / deadzone=21,11 / fast_pskip=1 / chroma_qp_offset=-2 / threads=8 / lookahead_threads=1 / sliced_threads=0 / nr=0 / decimate=1 / interlaced=0 / bluray_compat=0 / stitchable=1 / constrained_intra=0 / bframes=2 / b_pyramid=0 / b_adapt=2 / b_bias=0 / direct=3 / weightb=1 / open_gop=0 / weightp=2 / keyint=48 / keyint_min=25 / scenecut=0 / intra_refresh=0 / rc_lookahead=48 / rc=2pass / mbtree=1 / bitrate=3160 / ratetol=1.0 / qcomp=0.50 / qpmin=6 / qpmax=51 / qpstep=4 / cplxblur=20.0 / qblur=0.5 / vbv_maxrate=4740 / vbv_bufsize=6320 / nal_hrd=vbr / filler=0 / ip_ratio=1.40 / aq=1:1.00
Default : Yes
Forced : No
Statistics Tags Issue : mkvmerge v16.0.0 (‘Protest’) 32-bit 2018-07-18 07:31:19 / mkvmerge v6.4.1 (‘Omega Point’) built on Sep 16 2013 22:05:10 2018-07-18 07:56:02
FromStats_BitRate : 3134894
FromStats_Duration : 01:40:48.375000000
FromStats_FrameCount : 145161
FromStats_StreamSize : 2370127348

Audio #1
ID : 2
Format : AC-3
Format/Info : Audio Coding 3
Codec ID : A_AC3
Duration : 1 h 40 min
Bit rate mode : Constant
Bit rate : 384 kb/s
Channel(s) : 6 channels
Channel positions : Front: L C R, Side: L R, LFE
Sampling rate : 48.0 kHz
Frame rate : 31.250 FPS (1536 SPF)
Bit depth : 16 bits
Compression mode : Lossy
Stream size : 277 MiB (10%)
Title : Español latino
Language : Spanish
Service kind : Complete Main
Default : No
Forced : No
Statistics Tags Issue : mkvmerge v16.0.0 (‘Protest’) 32-bit 2018-07-18 07:31:19 / mkvmerge v6.4.1 (‘Omega Point’) built on Sep 16 2013 22:05:10 2018-07-18 07:56:02
FromStats_BitRate : 384000
FromStats_Duration : 01:40:48.416000000
FromStats_FrameCount : 189013
FromStats_StreamSize : 290323968

Audio #2
ID : 3
Format : AC-3
Format/Info : Audio Coding 3
Codec ID : A_AC3
Duration : 1 h 40 min
Bit rate mode : Constant
Bit rate : 384 kb/s
Channel(s) : 6 channels
Channel positions : Front: L C R, Side: L R, LFE
Sampling rate : 48.0 kHz
Frame rate : 31.250 FPS (1536 SPF)
Bit depth : 16 bits
Compression mode : Lossy
Stream size : 277 MiB (10%)
Title : Japonés
Language : Japanese
Service kind : Complete Main
Default : No
Forced : No
Statistics Tags Issue : mkvmerge v16.0.0 (‘Protest’) 32-bit 2018-07-18 07:31:19 / mkvmerge v6.4.1 (‘Omega Point’) built on Sep 16 2013 22:05:10 2018-07-18 07:56:02
FromStats_BitRate : 384000
FromStats_Duration : 01:40:48.416000000
FromStats_FrameCount : 189013
FromStats_StreamSize : 290323968

Text #1
ID : 4
Format : UTF-8
Codec ID : S_TEXT/UTF8
Codec ID/Info : UTF-8 Plain Text
Title : Español latino [Forzados]
Language : Spanish
Default : No
Forced : Yes
Statistics Tags Issue : mkvmerge v16.0.0 (‘Protest’) 32-bit 2018-07-18 07:31:19 / mkvmerge v6.4.1 (‘Omega Point’) built on Sep 16 2013 22:05:10 2018-07-18 07:56:02
FromStats_BitRate : 59
FromStats_Duration : 00:00:03.917000000
FromStats_FrameCount : 1
FromStats_StreamSize : 29

Text #2
ID : 5
Format : UTF-8
Codec ID : S_TEXT/UTF8
Codec ID/Info : UTF-8 Plain Text
Title : Español latino [Completos]
Language : Spanish
Default : No
Forced : No
Statistics Tags Issue : mkvmerge v16.0.0 (‘Protest’) 32-bit 2018-07-18 07:31:19 / mkvmerge v6.4.1 (‘Omega Point’) built on Sep 16 2013 22:05:10 2018-07-18 07:56:02
FromStats_BitRate : 62
FromStats_Duration : 01:40:06.042000000
FromStats_FrameCount : 1381
FromStats_StreamSize : 47244

Enlaces intercambiables

http://katfile.com/yw4dj634rpot
http://katfile.com/58ocuafag7p4
http://katfile.com/ynsrf3mq6vp5

http://ul.to/tybbp7xl
http://ul.to/yjwp2qo6
http://ul.to/qcroc31o

https://openload.co/f/9sYLzQScsfA
https://openload.co/f/D5syZoz9x2M
https://openload.co/f/po0KAu3kNLs

https://dailyuploads.net/353damzb52ka
https://dailyuploads.net/p1kenkbo1edc
https://dailyuploads.net/q88tvhue204g

Mostrar enlaces de Uptobox No cerrar la ventana hasta cumplir el tiempo Por favor no cerrar la ventana Enlaces de Uptobox

>>>Descargar Godzilla: City on the Edge of Battle [2018] [Latino] [1080p] [UB+]<<<
55 Visitas

Temas del mismo autor:

Deja un comentario