I Can Only Imagine [2018] [HDRip] [Latino] [Un link] [UB+]

La historia real de la aclamada canción “I Can Only Imagine”, la canción cristiana contemporánea más escuchada de todos los tiempos, compuesta por el cantante Bart Millard, de la banda cristiana MercyMe, basado en su propia vida.

Título original: I Can Only Imagineaka
Año: 2018
Duración: 110 min.
País: Estados Unidos Estados Unidos
Dirección: Andrew Erwin, Jon Erwin
Guion: Jon Erwin, Brent McCorkle (Historia: Alex Cramer, Jon Erwin, Brent McCorkle)
Música: Brent McCorkle
Fotografía: Kristopher Kimlin
Reparto: J. Michael Finley, Dennis Quaid, Cloris Leachman, Madeline Carroll, Trace Adkins, Priscilla Evans Shirer, Brody Rose
Productora: Kevin Downes / Mission Pictures International / Imagine Rights / LD Entertainment / Toy Gun Films. Distribuida por Lionsgate [USA] / Roadside Attractions [USA]
Género: Drama | Basado en hechos reales. Familia. Música. Religión

General
Complete name : Si Solo Pudiera Imaginar [HDRip][Latino].avi
Format : AVI
Format/Info : Audio Video Interleave
Format profile : OpenDML
File size : 1.90 GiB
Duration : 1 h 50 min
Overall bit rate : 2 466 kb/s
Writing application : Lavf52.84.0

Video
ID : 0
Format : AVC
Format/Info : Advanced Video Codec
Format profile : Baseline@L3
Format settings : 2 Ref Frames
Format settings, CABAC : No
Format settings, ReFrames : 2 frames
Format settings, GOP : M=1, N=13
Codec ID : H264
Duration : 1 h 50 min
Bit rate : 2 000 kb/s
Width : 720 pixels
Height : 302 pixels
Display aspect ratio : 2.40:1
Frame rate mode : Variable
Frame rate : 23.976 (24000/1001) FPS
Color space : YUV
Chroma subsampling : 4:2:0
Bit depth : 8 bits
Scan type : Progressive
Bits/(Pixel*Frame) : 0.384
Stream size : 1.55 GiB (81%)
Writing library : x264 core 110
Encoding settings : cabac=0 / ref=2 / deblock=1:0:0 / analyse=0x1:0 / me=hex / subme=8 / psy=1 / psy_rd=1.00:0.00 / mixed_ref=1 / me_range=16 / chroma_me=0 / trellis=0 / 8x8dct=0 / cqm=0 / deadzone=21,11 / fast_pskip=1 / chroma_qp_offset=-2 / threads=8 / sliced_threads=0 / nr=0 / decimate=1 / interlaced=0 / constrained_intra=0 / bframes=0 / weightp=0 / keyint=13 / keyint_min=7 / scenecut=0 / intra_refresh=0 / rc_lookahead=13 / rc=abr / mbtree=1 / bitrate=2000 / ratetol=1.0 / qcomp=0.00 / qpmin=10 / qpmax=51 / qpstep=4 / ip_ratio=1.41 / aq=1:1.00

Audio
ID : 1
Format : AC-3
Format/Info : Audio Coding 3
Codec ID : 2000
Duration : 1 h 50 min
Bit rate mode : Constant
Bit rate : 448 kb/s
Channel(s) : 2 channels
Channel(s)_Original : 6 channels
Channel positions : Front: L C R, Side: L R, LFE
Sampling rate : 48.0 kHz
Frame rate : 31.250 FPS (1536 SPF)
Bit depth : 16 bits
Compression mode : Lossy
Stream size : 354 MiB (18%)
Alignment : Aligned on interleaves
Interleave, duration : 32 ms (0.77 video frame)
Interleave, preload duratio : 32 ms
Service kind : Complete Main

Un link sin comprimir

http://katfile.com/m631p2s7vxv6
http://ul.to/rkv4dg78
https://dailyuploads.net/pzrxgfnivcvd

Enlaces intercambiables

http://katfile.com/zfvh8vlt3ucd/4-29-7-18.part1.rar.html
http://katfile.com/kvx651rp5qtk/4-29-7-18.part2.rar.html
http://ul.to/eropw3gq
http://ul.to/2hdk7mvs
https://openload.co/f/mzzV5VSTAz4
https://openload.co/f/_UxH213wiog
https://dailyuploads.net/6j9ccsrw23kf
https://dailyuploads.net/z9g3gkm4aja5

Mostrar enlaces de Uptobox No cerrar la ventana hasta cumplir el tiempo Por favor no cerrar la ventana Enlaces de Uptobox

Ver Online

https://openload.co/f/YlMqKfi7ng8

>>>Descargar I Can Only Imagine [2018] [HDRip] [Latino] [Un link] [UB+]<<<
6,827 Visitas

Temas del mismo autor:

Deja un comentario