I Can Only Imagine [2018] [Latino] [1080p] [UB+]

La historia real de la aclamada canción “I Can Only Imagine”, la canción cristiana contemporánea más escuchada de todos los tiempos, compuesta por el cantante Bart Millard, de la banda cristiana MercyMe, basado en su propia vida.

Título original: I Can Only Imagineaka
Año: 2018
Duración: 110 min.
País: Estados Unidos Estados Unidos
Dirección: Andrew Erwin, Jon Erwin
Guion: Jon Erwin, Brent McCorkle (Historia: Alex Cramer, Jon Erwin, Brent McCorkle)
Música: Brent McCorkle
Fotografía: Kristopher Kimlin
Reparto: J. Michael Finley, Dennis Quaid, Cloris Leachman, Madeline Carroll, Trace Adkins, Priscilla Evans Shirer, Brody Rose
Productora: Kevin Downes / Mission Pictures International / Imagine Rights / LD Entertainment / Toy Gun Films. Distribuida por Lionsgate [USA] / Roadside Attractions [USA]
Género: Drama | Basado en hechos reales. Familia. Música. Religión

General
Complete name : I Can Only Imagine (2018) 1080 Latino.mp4
Format : MPEG-4
Format profile : Base Media
Codec ID : isom (isom/iso2/avc1/mp41)
File size : 2.73 GiB
Duration : 1 h 50 min
Overall bit rate : 3 545 kb/s
Writing application : Lavf56.32.100

Video
ID : 1
Format : AVC
Format/Info : Advanced Video Codec
Format profile : Main@L4
Format settings : CABAC / 4 Ref Frames
Format settings, CABAC : Yes
Format settings, ReFrames : 4 frames
Codec ID : avc1
Codec ID/Info : Advanced Video Coding
Duration : 1 h 50 min
Bit rate : 3 410 kb/s
Width : 1 920 pixels
Height : 808 pixels
Display aspect ratio : 2.40:1
Frame rate mode : Variable
Frame rate : 23.976 FPS
Minimum frame rate : 23.564 FPS
Maximum frame rate : 24.390 FPS
Color space : YUV
Chroma subsampling : 4:2:0
Bit depth : 8 bits
Scan type : Progressive
Bits/(Pixel*Frame) : 0.092
Stream size : 2.63 GiB (96%)
Writing library : x264 core 142 r2479 dd79a61
Encoding settings : cabac=1 / ref=1 / deblock=1:0:0 / analyse=0x1:0x111 / me=hex / subme=2 / psy=1 / psy_rd=1.00:0.00 / mixed_ref=0 / me_range=16 / chroma_me=1 / trellis=0 / 8x8dct=0 / cqm=0 / deadzone=21,11 / fast_pskip=1 / chroma_qp_offset=0 / threads=12 / lookahead_threads=4 / sliced_threads=0 / nr=0 / decimate=1 / interlaced=0 / bluray_compat=0 / constrained_intra=0 / bframes=3 / b_pyramid=2 / b_adapt=1 / b_bias=0 / direct=1 / weightb=1 / open_gop=0 / weightp=1 / keyint=240 / keyint_min=24 / scenecut=40 / intra_refresh=0 / rc_lookahead=10 / rc=crf / mbtree=1 / crf=20.0 / qcomp=0.60 / qpmin=0 / qpmax=69 / qpstep=4 / vbv_maxrate=20000 / vbv_bufsize=25000 / crf_max=0.0 / nal_hrd=none / filler=0 / ip_ratio=1.40 / aq=1:1.00
Color range : Limited
Color primaries : BT.709
Transfer characteristics : BT.709
Matrix coefficients : BT.709

Audio
ID : 2
Format : AAC
Format/Info : Advanced Audio Codec
Format profile : LC
Codec ID : mp4a-40-2
Duration : 1 h 50 min
Duration_LastFrame : -11 ms
Bit rate mode : Constant
Bit rate : 128 kb/s
Channel(s) : 2 channels
Channel positions : Front: L R
Sampling rate : 48.0 kHz
Frame rate : 46.875 FPS (1024 SPF)
Compression mode : Lossy
Stream size : 101 MiB (4%)
Language : Spanish
Default : Yes
Alternate group : 1

Enlaces intercambiables

http://katfile.com/3ml6sbfhmuxw/24-7-18.part1.rar.html
http://katfile.com/ecxnxt26f44w/24-7-18.part2.rar.html
http://katfile.com/y5x68ysi70o5/24-7-18.part3.rar.html
http://katfile.com/ihg0kyetowhu/24-7-18.part4.rar.html
http://katfile.com/ub8ijlpw3sp9/24-7-18.part5.rar.html
http://katfile.com/5xejhl2o3fnj/24-7-18.part6.rar.html
http://ul.to/yfguho21
http://ul.to/ydfq1xv0
http://ul.to/vgsacr0d
http://ul.to/zuor5nhq
http://ul.to/owcqwrkm
http://ul.to/6t4adb1l
https://openload.co/f/gWo8yZA2oS0
https://openload.co/f/xKNuhqWAgjA
https://openload.co/f/ElJYTZwR8mg
https://openload.co/f/P5OM_Xmg-jI
https://openload.co/f/I7sDXF-lSPA
https://openload.co/f/TWYtQR9NdO0
https://dailyuploads.net/3fiyd8duqudg
https://dailyuploads.net/9dkle5ivke7y
https://dailyuploads.net/z8qujqwh6wk1
https://dailyuploads.net/996h1h2qyl9n
https://dailyuploads.net/yyzyjpi21w8z
https://dailyuploads.net/nqc5f5x62t5v

Mostrar enlaces de Uptobox No cerrar la ventana hasta cumplir el tiempo Por favor no cerrar la ventana Enlaces de Uptobox

>>>Descargar I Can Only Imagine [2018] [Latino] [1080p] [UB+]<<<
8,809 Visitas

Temas del mismo autor:

Deja un comentario