La pequeña brujita [2018] [Latino] [HDRip] [Un link] [UB+]

La pequeña bruja sólo tiene 127 años, y es demasiado joven para poder acudir a la asamblea nacional de brujas. Además ella quiere no sólo ser simplemente una bruja, sino una muy buena. Esta decisión la traerá más de un problema en su mundo mágico.

Título original: Die kleine Hexeaka
Año: 2018
Duración: 103 min.
País: Alemania Alemania
Dirección: Mike Schaerer
Guion: Matthias Pacht (Libro: Otfried Preußler)
Música: Diego Baldenweg, Lionel Vincent Baldenweg, Nora Baldenweg
Fotografía:Matthias Fleischer
Reparto: Karoline Herfurth, Luis Vorbach, Momo Beier, Suzanne von Borsody, Barbara Melzl, Carolin Spiess, Eveline Hall, Therese Affolter, Angelika Böttiger, Katharina Bohny, Verena Bosshard, Thomas Loibl, Marek Harbort, Justus Kaßmann, Lukas Benjamin Engel, Michael Gempart, Lena Krimmel, Anna Striesow, Stephan Boden, Amelie Elisa Klein, Marcus Signer, Peter Rauch
Productora: Coproducción Alemania-Suiza; Claussen + Putz Filmproduktion / StudioCanal / Zodiac Pictures International
Género: Comedia. Infantil. Fantástico | Brujería

General
Complete name : La.pequena.brujita.HDRip.Latino.avi
Format : AVI
Format/Info : Audio Video Interleave
File size : 1.83 GiB
Duration : 1 h 42 min
Overall bit rate : 2 547 kb/s
Writing application : VirtualDubMod 1.5.10.2 (build 2540/release)
Writing library : VirtualDubMod build 2540/release
Video
ID : 0
Format : AVC
Format/Info : Advanced Video Codec
Format profile : High@L4.1
Format settings : CABAC / 2 Ref Frames
Format settings, CABAC : Yes
Format settings, ReFrames : 2 frames
Codec ID : H264
Duration : 1 h 42 min
Bit rate : 2 089 kb/s
Width : 720 pixels
Height : 314 pixels
Display aspect ratio : 2.25:1
Frame rate : 23.976 (24000/1001) FPS
Color space : YUV
Chroma subsampling : 4:2:0
Bit depth : 8 bits
Scan type : Progressive
Bits/(Pixel*Frame) : 0.385
Stream size : 1.50 GiB (82%)
Writing library : x264 core
Color range : Limited
Color primaries : BT.601 NTSC
Transfer characteristics : BT.709
Matrix coefficients : BT.601
Audio
ID : 1
Format : AC-3
Format/Info : Audio Coding 3
Codec ID : 2000
Duration : 1 h 42 min
Bit rate mode : Constant
Bit rate : 448 kb/s
Channel(s) : 6 channels
Channel positions : Front: L C R, Side: L R, LFE
Sampling rate : 48.0 kHz
Frame rate : 31.250 FPS (1536 SPF)
Bit depth : 16 bits
Compression mode : Lossy
Stream size : 330 MiB (18%)
Alignment : Split accross interleaves
Interleave, duration : 42 ms (1.00 video frame)
Interleave, preload duratio : 500 ms
Service kind : Complete Main

Un link sin comprimir

https://katfile.com/pba8y0oa0wss
http://ul.to/gv2usiem

Ver online

https://openload.co/f/60sfk1nD8a8

Mostrar enlaces de Uptobox No cerrar la ventana hasta cumplir el tiempo Por favor no cerrar la ventana Enlaces de Uptobox

>>>Descargar La pequeña brujita [2018] [Latino] [HDRip] [Un link] [UB+]<<<
55 Visitas

Temas del mismo autor:

Deja un comentario