La prima [Latino] [2018] [HDRip] [Un link] [UB+]

Una mujer (Natasha Esca) busca el amor y no es satisfecha sexualmente por su marido (Jesús Ochoa). En un momento dado, él la deja sola una temporada y aparece ante ella un joven guapo y exitoso primo que la seduce (Mark Tacher).

Título original: La prima
Año: 2018
Duración: 97 min.
País: México México
Dirección: Víctor Ugalde
Guion: Vicente Leñero (Novela: Eça de Queirós)
Música: Gerardo Rosado
Fotografía: Arturo de la Rosa
Reparto: María Rojo, Jesús Ochoa, Angélica Aragón, Natasha Esca, Mark Tacher, Isabel Madow, Julio Bracho, Sergio Kleiner, Leticia Huijara, Alejandro Camacho, Ernesto Gómez Cruz, José Carlos Rodríguez
Productora: Producciones Circe
Género: Comedia

General
Complete name : La.Prima.HDRip.Latino.avi
Format : AVI
Format/Info : Audio Video Interleave
File size : 1.57 GiB
Duration : 1 h 38 min
Overall bit rate : 2 295 kb/s
Writing application : VirtualDubMod 1.5.10.2 (build 2540/release)
Writing library : VirtualDubMod build 2540/release
Video
ID : 0
Format : AVC
Format/Info : Advanced Video Codec
Format profile : High@L4.1
Format settings : CABAC / 2 Ref Frames
Format settings, CABAC : Yes
Format settings, ReFrames : 2 frames
Codec ID : H264
Duration : 1 h 38 min
Bit rate : 2 093 kb/s
Width : 720 pixels
Height : 420 pixels
Display aspect ratio : 1.714
Frame rate : 23.976 (24000/1001) FPS
Color space : YUV
Chroma subsampling : 4:2:0
Bit depth : 8 bits
Scan type : Progressive
Bits/(Pixel*Frame) : 0.289
Stream size : 1.43 GiB (91%)
Writing library : x264 core
Color range : Limited
Color primaries : BT.601 NTSC
Transfer characteristics : BT.709
Matrix coefficients : BT.601
Audio
ID : 1
Format : AC-3
Format/Info : Audio Coding 3
Codec ID : 2000
Duration : 1 h 38 min
Bit rate mode : Constant
Bit rate : 192 kb/s
Channel(s) : 2 channels
Channel positions : Front: L R
Sampling rate : 48.0 kHz
Frame rate : 31.250 FPS (1536 SPF)
Bit depth : 16 bits
Compression mode : Lossy
Stream size : 135 MiB (8%)
Alignment : Split accross interleaves
Interleave, duration : 42 ms (1.00 video frame)
Interleave, preload duratio : 500 ms
Service kind : Complete Main

Un link sin comprimir

http://katfile.com/iu3w6kegb5rn
http://ul.to/4vt0jwii

Mostrar enlaces de Uptobox No cerrar la ventana hasta cumplir el tiempo Por favor no cerrar la ventana Enlaces de Uptobox

Ver Online

https://openload.co/f/Yvxw2c1LGME

>>>Descargar La prima [Latino] [2018] [HDRip] [Un link] [UB+]<<<
52 Visitas

Temas del mismo autor:

Deja un comentario