Mamma Mia: Una y otra vez [2018] [Latino] [Cam] [Un Link] [UB+]

“Mamma Mia: Una y otra vez” nos lleva de viaje al verano donde comenzó todo. Desde su vida en el presente, los protagonistas de “Mamma mia!” nos cuentan los hechos acontecidos el mágico verano en el que comenzó esta historia de los tres posibles padres de Sophie.

Título original: Mamma Mia: Here We Go Again!aka
Año: 2018
Duración: 108 min.
País: Reino Unido Reino Unido
Dirección: Ol Parker
Guion: Ol Parker
Fotografía: Robert D. Yeoman
Reparto: Amanda Seyfried, Lily James, Christine Baranski, Julie Walters, Pierce Brosnan, Colin Firth, Stellan Skarsgard, Dominic Cooper, Andy García, Cher, Meryl Streep, Jeremy Irvine, Alexa Davies, Jessica Keenan Wynn, Josh Dylan, Hugh Skinner, Togo Igawa, Naoko Mori, Omid Djalili
Productora: Universal Pictures / Legendary Pictures
Género: Musical. Comedia. Romance | Secuela. Precuela

General
Complete name : Mamma Mia! Vamos otra vez [Cam][Latino].mp4
Format : MPEG-4
Format profile : Base Media / Version 2
Codec ID : mp42 (isom/iso2/avc1/mp41)
File size : 1.61 GiB
Duration : 1 h 46 min
Overall bit rate mode : Variable
Overall bit rate : 2 175 kb/s
Encoded date : UTC 2018-07-22 18:47:57
Tagged date : UTC 2018-07-22 18:47:57
Writing application : HandBrake 1.0.7 2017040900

Video
ID : 1
Format : AVC
Format/Info : Advanced Video Codec
Format profile : Main@L4
Format settings : CABAC / 4 Ref Frames
Format settings, CABAC : Yes
Format settings, ReFrames : 4 frames
Codec ID : avc1
Codec ID/Info : Advanced Video Coding
Duration : 1 h 46 min
Bit rate : 2 000 kb/s
Width : 720 pixels
Height : 480 pixels
Display aspect ratio : 16:9
Original display aspect rat : 16:9
Frame rate mode : Constant
Frame rate : 29.970 (30000/1001) FPS
Standard : NTSC
Color space : YUV
Chroma subsampling : 4:2:0
Bit depth : 8 bits
Scan type : Progressive
Bits/(Pixel*Frame) : 0.193
Stream size : 1.49 GiB (92%)
Writing library : x264 core 148 r2708 86b7198
Encoding settings : cabac=1 / ref=1 / deblock=1:0:0 / analyse=0x1:0x111 / me=hex / subme=2 / psy=1 / psy_rd=1.00:0.00 / mixed_ref=0 / me_range=16 / chroma_me=1 / trellis=0 / 8x8dct=0 / cqm=0 / deadzone=21,11 / fast_pskip=1 / chroma_qp_offset=0 / threads=12 / lookahead_threads=3 / sliced_threads=0 / nr=0 / decimate=1 / interlaced=0 / bluray_compat=0 / constrained_intra=0 / bframes=3 / b_pyramid=2 / b_adapt=1 / b_bias=0 / direct=1 / weightb=1 / open_gop=0 / weightp=1 / keyint=300 / keyint_min=30 / scenecut=40 / intra_refresh=0 / rc_lookahead=10 / rc=abr / mbtree=1 / bitrate=2000 / ratetol=1.0 / qcomp=0.60 / qpmin=0 / qpmax=69 / qpstep=4 / vbv_maxrate=20000 / vbv_bufsize=25000 / nal_hrd=none / filler=0 / ip_ratio=1.40 / aq=1:1.00
Encoded date : UTC 2018-07-22 18:47:57
Tagged date : UTC 2018-07-22 18:47:57
Color range : Limited
Color primaries : BT.601 NTSC
Transfer characteristics : BT.709
Matrix coefficients : BT.601

Audio
ID : 2
Format : AAC
Format/Info : Advanced Audio Codec
Format profile : LC
Codec ID : mp4a-40-2
Duration : 1 h 46 min
Bit rate mode : Variable
Bit rate : 160 kb/s
Channel(s) : 2 channels
Channel positions : Front: L R
Sampling rate : 48.0 kHz
Frame rate : 46.875 FPS (1024 SPF)
Compression mode : Lossy
Stream size : 122 MiB (7%)
Title : Stereo / Stereo
Language : Spanish
Default : Yes
Alternate group : 1
Encoded date : UTC 2018-07-22 18:47:57
Tagged date : UTC 2018-07-22 18:47:57

Un link sin comprimir

http://katfile.com/k1fgo3tc1lci
http://ul.to/u1v9rv4d
https://dailyuploads.net/j00p8a6a3uu1

Enlaces intercambiables

http://katfile.com/b67g3i969q30/3-29-7-18.part1.rar.html
http://katfile.com/a09cjlcw581g/3-29-7-18.part2.rar.html
http://ul.to/k1uevdae
http://ul.to/fis04ph1
https://openload.co/f/c-iENfNmSmw
https://openload.co/f/vQo1c-2oXWw
https://dailyuploads.net/egmyo7usynez
https://dailyuploads.net/67nitw1cnsx8

Mostrar enlaces de Uptobox No cerrar la ventana hasta cumplir el tiempo Por favor no cerrar la ventana Enlaces de Uptobox

Ver Online

https://openload.co/f/kTolfWsDNlc

>>>Descargar Mamma Mia: Una y otra vez [2018] [Latino] [Cam] [Un Link] [UB+]<<<
98 Visitas

Temas del mismo autor:

Deja un comentario