Papás con honores [2018] [Latino] [1080p] [Un link] [UB+]

Emma, ​​de diecisiete años, se une a un equipo de porristas de la escuela secundaria cuando se muda a Australia con su padre, ex oficial de la Fuerza Aérea.

Título original: Father of the Year
Año: 2018
Duración: 94 min.
País: Estados Unidos Estados Unidos
Dirección: Tyler Spindel
Música: Elmo Weber
Fotografía: Brad Shield
Reparto: David Spade, Nat Faxon, Joey Bragg, Matt Shively, Bridgit Mendler, Bill Kottkamp, Dean Winters, Jared Sandler, Kevin Nealon, Allen Covert
Productora: Happy Madison Productions. Distribuida por Netflix
Género: Comedia

General
Complete name : Father Of The Year Latino.mp4
Format : MPEG-4
Format profile : Base Media
Codec ID : isom (isom/iso2/avc1/mp41)
File size : 937 MiB
Duration : 1 h 34 min
Overall bit rate : 1 384 kb/s
Movie name : [Club-HD] Father of the Year [1080p]
Writing application : Lavf57.83.100

Video
ID : 1
Format : AVC
Format/Info : Advanced Video Codec
Format profile : High@L3.1
Format settings : CABAC / 5 Ref Frames
Format settings, CABAC : Yes
Format settings, ReFrames : 5 frames
Codec ID : avc1
Codec ID/Info : Advanced Video Coding
Duration : 1 h 34 min
Bit rate : 1 280 kb/s
Width : 1 920 pixels
Height : 1 080 pixels
Display aspect ratio : 16:9
Frame rate mode : Constant
Frame rate : 23.976 (24000/1001) FPS
Color space : YUV
Chroma subsampling : 4:2:0
Bit depth : 8 bits
Scan type : Progressive
Bits/(Pixel*Frame) : 0.026
Stream size : 826 MiB (88%)
Writing library : x264 core 148 r2643 5c65704
Encoding settings : cabac=1 / ref=5 / deblock=1:0:0 / analyse=0x3:0x113 / me=hex / subme=7 / psy=1 / psy_rd=1.00:0.00 / mixed_ref=1 / me_range=16 / chroma_me=1 / trellis=1 / 8x8dct=1 / cqm=0 / deadzone=21,11 / fast_pskip=1 / chroma_qp_offset=-2 / threads=8 / lookahead_threads=8 / sliced_threads=1 / slices=8 / nr=0 / decimate=1 / interlaced=0 / bluray_compat=0 / constrained_intra=0 / bframes=0 / weightp=2 / keyint=250 / keyint_min=23 / scenecut=40 / intra_refresh=0 / rc=abr / mbtree=0 / bitrate=1280 / ratetol=1.0 / qcomp=0.60 / qpmin=0 / qpmax=69 / qpstep=4 / ip_ratio=1.40 / aq=1:1.00

Audio
ID : 2
Format : AAC
Format/Info : Advanced Audio Codec
Format profile : LC
Codec ID : mp4a-40-2
Duration : 1 h 34 min
Bit rate mode : Constant
Bit rate : 159 kb/s
Channel(s) : 2 channels
Channel positions : Front: L R
Sampling rate : 48.0 kHz
Frame rate : 46.875 FPS (1024 SPF)
Compression mode : Lossy
Stream size : 108 MiB (11%)
Language : Spanish
Default : Yes
Alternate group : 1

Un link sin comprimir

http://katfile.com/hpkczsion640
http://ul.to/rwawcfl3
https://dailyuploads.net/gijei7t1b70e

Mostrar enlaces de Uptobox No cerrar la ventana hasta cumplir el tiempo Por favor no cerrar la ventana Enlaces de Uptobox

Ver Online

https://openload.co/f/-BAY-M_lasc

>>>Descargar Papás con honores [2018] [Latino] [1080p] [Un link] [UB+]<<<
54 Visitas

Temas del mismo autor:

Deja un comentario