Perturbada [2018] [Latino] [HDRip] [Un link] [UB+]

Una joven perseguida por un acosador es recluida contra su voluntad en una institución mental donde se ha de enfrentar a su mayor temor, pero ¿es real o es producto de sus delirios?…

Título original: Unsane
Año: 2018
Duración: 98 min.
País: Estados Unidos Estados Unidos
Dirección: Steven Soderbergh
Guion: James Greer, Jonathan Bernstein (Autor: Jonathan Bernstein)
Fotografía: Steven Soderbergh
Reparto: Claire Foy, Juno Temple, Aimee Mullins, Amy Irving, Jay Pharoah, Joshua Leonard, Colin Woodell, Sarah Stiles, Polly McKie, Ursula Triplett, Laura Rothschild, Lance Coughlin
Productora: Distribuida por Fingerprint Releasing [USA] / Bleecker Street
Género: Thriller | Thriller psicológico

General
Complete name : Perturbada.HDRip.Latino.avi
Format : AVI
Format/Info : Audio Video Interleave
Format profile : OpenDML
File size : 1.76 GiB
Duration : 1 h 38 min
Overall bit rate : 2 559 kb/s
Writing application : Lavf53.32.100
Video
ID : 0
Format : AVC
Format/Info : Advanced Video Codec
Format profile : High@L4.1
Format settings : CABAC / 2 Ref Frames
Format settings, CABAC : Yes
Format settings, ReFrames : 2 frames
Codec ID : H264
Duration : 1 h 38 min
Bit rate : 2 100 kb/s
Width : 720 pixels
Height : 406 pixels
Display aspect ratio : 16:9
Frame rate : 23.976 (24000/1001) FPS
Color space : YUV
Chroma subsampling : 4:2:0
Bit depth : 8 bits
Scan type : Progressive
Bits/(Pixel*Frame) : 0.300
Stream size : 1.44 GiB (82%)
Writing library : x264 core
Color range : Limited
Color primaries : BT.601 NTSC
Transfer characteristics : BT.709
Matrix coefficients : BT.601
Audio
ID : 1
Format : AC-3
Format/Info : Audio Coding 3
Codec ID : 2000
Duration : 1 h 38 min
Bit rate mode : Constant
Bit rate : 448 kb/s
Channel(s) : 6 channels
Channel positions : Front: L C R, Side: L R, LFE
Sampling rate : 48.0 kHz
Frame rate : 31.250 FPS (1536 SPF)
Bit depth : 16 bits
Compression mode : Lossy
Stream size : 315 MiB (18%)
Alignment : Aligned on interleaves
Interleave, duration : 32 ms (0.77 video frame)
Service kind : Complete Main

Un link sin comprimir

http://katfile.com/uxv54fvb1jzt
http://ul.to/z7zxa89r
https://dailyuploads.net/24ogrv52bsi3

Mostrar enlaces de Uptobox No cerrar la ventana hasta cumplir el tiempo Por favor no cerrar la ventana Enlaces de Uptobox

Ver Online

https://openload.co/f/Hh33rzPkEG0

>>>Descargar Perturbada [2018] [Latino] [HDRip] [Un link] [UB+]<<<
39 Visitas

Temas del mismo autor:

Deja un comentario