Rascacielos: Rescate en las alturas [2018] [Latino] [Cam] [Un link] [UB+]

Will Sawyer, antiguo líder del Equipo de Rescate de Rehenes del FBI y veterano de guerra del ejército de Estados Unidos, ahora se encarga de evaluar la seguridad de los rascacielos. Durante un viaje de trabajo en China, se ve incriminado en el incendio del edificio más alto y seguro del mundo. Perseguido y a la fuga, Will deberá encontrar a los que le han tendido la trampa, limpiar su nombre y rescatar a su familia, atrapada en el interior del rascacielos… sin sucumbir a las llamas.

Título original: Skyscraperaka
Año: 2018
Duración: 103 min.
País: Estados Unidos Estados Unidos
Dirección: Rawson Marshall Thurber
Guion: Rawson Marshall Thurber
Música: Steve Jablonsky
Fotografía: Robert Elswit
Reparto: Dwayne “The Rock” Johnson, Neve Campbell, Pablo Schreiber, Roland Møller, Paul McGillion, Adrian Holmes, Noah Taylor, Kevin Rankin, McKenna Roberts, Byron Mann, Matt O’Leary, Tzi Ma, Chin Han, Hannah Quinlivan, Beatrice King, Kathy Wu, Venus Terzo, Vivian Full, Elfina Luk
Productora: Legendary Pictures / FPC Production / Seven Bucks Productions. Distribuida por Universal Pictures
Género: Acción. Thriller | Secuestros / Desapariciones

General
Complete name : Rascacielos.CAMRip.Latino.avi
Format : AVI
Format/Info : Audio Video Interleave
File size : 1.57 GiB
Duration : 1 h 32 min
Overall bit rate : 2 432 kb/s
Writing application : VirtualDubMod 1.5.10.2 (build 2540/release)
Writing library : VirtualDubMod build 2540/release
Video
ID : 0
Format : AVC
Format/Info : Advanced Video Codec
Format profile : High@L4.1
Format settings : CABAC / 2 Ref Frames
Format settings, CABAC : Yes
Format settings, ReFrames : 2 frames
Codec ID : H264
Duration : 1 h 32 min
Bit rate : 2 100 kb/s
Width : 720 pixels
Height : 450 pixels
Display aspect ratio : 16:10
Frame rate : 29.970 (30000/1001) FPS
Color space : YUV
Chroma subsampling : 4:2:0
Bit depth : 8 bits
Scan type : Progressive
Bits/(Pixel*Frame) : 0.216
Stream size : 1.35 GiB (86%)
Writing library : x264 core
Color range : Limited
Color primaries : BT.601 NTSC
Transfer characteristics : BT.709
Matrix coefficients : BT.601
Audio
ID : 1
Format : MPEG Audio
Format version : Version 1
Format profile : Layer 3
Format settings : Joint stereo / MS Stereo
Codec ID : 55
Codec ID/Hint : MP3
Duration : 1 h 32 min
Bit rate mode : Constant
Bit rate : 320 kb/s
Channel(s) : 2 channels
Sampling rate : 48.0 kHz
Compression mode : Lossy
Stream size : 211 MiB (13%)
Alignment : Split accross interleaves
Interleave, duration : 33 ms (1.00 video frame)
Interleave, preload duratio : 500 ms

Un link sin comprimir

http://katfile.com/3r01rb9wts5a
http://ul.to/dld9blad

Mostrar enlaces de Uptobox No cerrar la ventana hasta cumplir el tiempo Por favor no cerrar la ventana Enlaces de Uptobox

Ver Online

https://openload.co/f/BQ_9wWCymx8

>>>Descargar Rascacielos: Rescate en las alturas [2018] [Latino] [Cam] [Un link] [UB+]<<<
67 Visitas

Temas del mismo autor:

Deja un comentario