Rescate en Entebbe [2018] [Latino] [HDRip] [Un link] [UB+]

En 1976 un avión de Air France con 248 pasajeros a bordo fue secuestrado por dos palestinos del Frente Popular para la Liberación de Palestina y dos alemanes de las Células Revolucionarias alemanas, siendo desviado al Aeropuerto Internacional de Entebbe, en Uganda. Los secuestradores exigían la liberación de más de 50 palestinos detenidos en diferentes países.

Título original: Entebbeaka
Año: 2018
Duración: 107 min.
País: Reino Unido Reino Unido
Dirección: José Padilha
Guion: Gregory Burke
Música: Rodrigo Amarante
Fotografía: Lula Carvalho
Reparto: Rosamund Pike, Daniel Brühl, Eddie Marsan, Ben Schnetzer, Kamil Lemieszewski, Denis Menochet, Mark Ivanir, Natalie Stone, Andrea Deck, Vincent Riotta, Peter Sullivan, Lior Ashkenazi, Flynn Allen, Brontis Jodorowsky, Angel Bonanni, Noof McEwan, Ingrid Craigie, Yiftach Klein, Omar Berdouni, Uriel Emil, David Annen, Frida Cauchi, Laurel Lefkow, Daniel Ben Zenou, Antonella Axisa, Jonathan Pyatt
Productora: Coproducción Reino Unido-Estados Unidos; Participant Media / Pellikola / Working Title Films. Distribuida por Lionsgate [USA]
Género: Thriller. Drama. Acción | Basado en hechos reales. Años 70. Secuestros / Desapariciones. Terrorismo. Aviones

General
Complete name : Rescate.En.Entebbe.HDRipf.Latino.avi
Format : AVI
Format/Info : Audio Video Interleave
File size : 1.71 GiB
Duration : 1 h 46 min
Overall bit rate : 2 298 kb/s
Writing application : VirtualDubMod 1.5.10.2 (build 2540/release)
Writing library : VirtualDubMod build 2540/release
Video
ID : 0
Format : MPEG-4 Visual
Format profile : Simple@L1
Format settings, BVOP : No
Format settings, QPel : No
Format settings, GMC : No warppoints
Format settings, Matrix : Default (H.263)
Codec ID : XVID
Codec ID/Hint : XviD
Duration : 1 h 46 min
Bit rate : 1 841 kb/s
Width : 720 pixels
Height : 304 pixels
Display aspect ratio : 2.35:1
Frame rate : 23.976 (24000/1001) FPS
Color space : YUV
Chroma subsampling : 4:2:0
Bit depth : 8 bits
Scan type : Progressive
Compression mode : Lossy
Bits/(Pixel*Frame) : 0.351
Stream size : 1.37 GiB (80%)
Writing library : Lavc52.97.0
Audio
ID : 1
Format : AC-3
Format/Info : Audio Coding 3
Codec ID : 2000
Duration : 1 h 46 min
Bit rate mode : Constant
Bit rate : 448 kb/s
Channel(s) : 2 channels
Channel positions : Front: L R
Sampling rate : 48.0 kHz
Frame rate : 31.250 FPS (1536 SPF)
Bit depth : 16 bits
Compression mode : Lossy
Stream size : 342 MiB (19%)
Alignment : Split accross interleaves
Interleave, duration : 42 ms (1.00 video frame)
Interleave, preload duratio : 500 ms
Service kind : Complete Main

Un link sin comprimir

http://katfile.com/qrgrmhp0tbb2
http://ul.to/5wj39jgh

Mostrar enlaces de Uptobox No cerrar la ventana hasta cumplir el tiempo Por favor no cerrar la ventana Enlaces de Uptobox

Ver Online

https://openload.co/f/8_16eTIlkv0

>>>Descargar Rescate en Entebbe [2018] [Latino] [HDRip] [Un link] [UB+]<<<
52 Visitas

Temas del mismo autor:

Deja un comentario