Temporada de caza [2017] [Latino] [HDRip] [Un link] [UB+]

Nahuel es un adolescente con una innata conducta violenta. Tras la muerte de su madre, viaja a la Patagonia, en el sur de Argentina, donde se encuentra con su padre biológico, al que no ha visto en más de una década. Ernesto es un respetado guía de caza que vive en las montañas con su segunda esposa y sus hijas. La reunión no resulta fácil, el orgullo y el resentimiento prevalecen tanto en el padre como en el hijo.

Título original: Temporada de caza
Año: 2017
Duración: 110 min.
País: Argentina Argentina
Dirección: Natalia Garagiola
Guion: Natalia Garagiola
Música: Juan Tobal
Fotografía: Fernando Lockett
Reparto: Germán Palacios, Lautaro Bettoni, Boy Olmi, Rita Pauls, Pilar Benitez Vivart
Productora: Coproducción Argentina-Francia-Alemania; Rei Cine / Les Films de L’Etranger / Augenschein Filmproduktion / Gamechanger Films
Género: Drama

General
Complete name : Temporada.de.Caza. HDRip Latino.avi
Format : AVI
Format/Info : Audio Video Interleave
Format profile : OpenDML
File size : 1.90 GiB
Duration : 1 h 48 min
Overall bit rate : 2 509 kb/s
Writing application : Lavf52.84.0

Video
ID : 0
Format : AVC
Format/Info : Advanced Video Codec
Format profile : Baseline@L3
Format settings : 2 Ref Frames
Format settings, CABAC : No
Format settings, ReFrames : 2 frames
Format settings, GOP : M=1, N=13
Codec ID : H264
Duration : 1 h 48 min
Bit rate : 2 100 kb/s
Width : 720 pixels
Height : 320 pixels
Display aspect ratio : 2.25:1
Frame rate mode : Variable
Frame rate : 24.000 FPS
Color space : YUV
Chroma subsampling : 4:2:0
Bit depth : 8 bits
Scan type : Progressive
Bits/(Pixel*Frame) : 0.380
Stream size : 1.60 GiB (84%)
Writing library : x264 core 110
Encoding settings : cabac=0 / ref=2 / deblock=1:0:0 / analyse=0x1:0 / me=hex / subme=8 / psy=1 / psy_rd=1.00:0.00 / mixed_ref=1 / me_range=16 / chroma_me=0 / trellis=0 / 8x8dct=0 / cqm=0 / deadzone=21,11 / fast_pskip=1 / chroma_qp_offset=-2 / threads=8 / sliced_threads=0 / nr=0 / decimate=1 / interlaced=0 / constrained_intra=0 / bframes=0 / weightp=0 / keyint=13 / keyint_min=7 / scenecut=0 / intra_refresh=0 / rc_lookahead=13 / rc=abr / mbtree=1 / bitrate=2100 / ratetol=1.0 / qcomp=0.00 / qpmin=10 / qpmax=51 / qpstep=4 / ip_ratio=1.41 / aq=1:1.00

Audio
ID : 1
Format : AC-3
Format/Info : Audio Coding 3
Codec ID : 2000
Duration : 1 h 48 min
Bit rate mode : Constant
Bit rate : 384 kb/s
Channel(s) : 2 channels
Channel(s)_Original : 6 channels
Channel positions : Front: L C R, Side: L R, LFE
Sampling rate : 48.0 kHz
Frame rate : 31.250 FPS (1536 SPF)
Bit depth : 16 bits
Compression mode : Lossy
Stream size : 298 MiB (15%)
Alignment : Aligned on interleaves
Interleave, duration : 32 ms (0.77 video frame)
Interleave, preload duratio : 32 ms
Service kind : Complete Main

Un link sin comprimir

http://katfile.com/vtd2o82jjmj6
http://ul.to/13eynp2g
https://dailyuploads.net/o96pk139yx2v

Mostrar enlaces de Uptobox No cerrar la ventana hasta cumplir el tiempo Por favor no cerrar la ventana Enlaces de Uptobox

Ver Online

https://openload.co/f/AoGY1C1emTs

>>>Descargar Temporada de caza [2017] [Latino] [HDRip] [Un link] [UB+]<<<
41 Visitas

Temas del mismo autor:

Deja un comentario