Tully [2018] [Latino] [HDRip] [Un link] [UB+]

Marlo (Charlize Theron) es una madre con tres hijos, el último recién nacido, que recibe un inesperado regalo de parte de su hermano (Mark Duplass): una niñera para que le ayude por las noches. Al principio le parece una extravagancia, pero Marlo acaba teniendo una relación única con Tully (Mackenzie Davis), una joven niñera amable, sorprendente y, en ocasiones, difícil..

Título original: Tully
Año: 2018
Duración: 94 min.
País: Estados Unidos Estados Unidos
Dirección: Jason Reitman
Guion: Diablo Cody
Música: Rob Simonsen
Fotografía: Eric Steelberg
Reparto: Charlize Theron, Mackenzie Davis, Mark Duplass, Emily Haine, Ron Livingston, Elaine Tan, Maddie Dixon-Poirier, Lia Frankland
Productora: Bron Studios / Right Way Productions / Denver and Delilah Productions. Distribuida por Focus Features
Género: Comedia. Drama

General
Complete name : Tully.HDRip.Latino.avi
Format : AVI
Format/Info : Audio Video Interleave
File size : 1.53 GiB
Duration : 1 h 35 min
Overall bit rate : 2 293 kb/s
Writing application : VirtualDubMod 1.5.10.2 (build 2540/release)
Writing library : VirtualDubMod build 2540/release

Video
ID : 0
Format : AVC
Format/Info : Advanced Video Codec
Format profile : High@L4.1
Format settings : CABAC / 2 Ref Frames
Format settings, CABAC : Yes
Format settings, ReFrames : 2 frames
Codec ID : H264
Duration : 1 h 35 min
Bit rate : 2 091 kb/s
Width : 720 pixels
Height : 388 pixels
Display aspect ratio : 1.85:1
Frame rate : 23.976 (24000/1001) FPS
Color space : YUV
Chroma subsampling : 4:2:0
Bit depth : 8 bits
Scan type : Progressive
Bits/(Pixel*Frame) : 0.312
Stream size : 1.40 GiB (91%)
Writing library : x264 core
Color range : Limited
Color primaries : BT.601 NTSC
Transfer characteristics : BT.709
Matrix coefficients : BT.601

Audio
ID : 1
Format : AC-3
Format/Info : Audio Coding 3
Codec ID : 2000
Duration : 1 h 35 min
Bit rate mode : Constant
Bit rate : 192 kb/s
Channel(s) : 2 channels
Channel positions : Front: L R
Sampling rate : 48.0 kHz
Frame rate : 31.250 FPS (1536 SPF)
Bit depth : 16 bits
Compression mode : Lossy
Stream size : 131 MiB (8%)
Alignment : Split accross interleaves
Interleave, duration : 42 ms (1.00 video frame)
Interleave, preload duratio : 500 ms
Service kind : Complete Main

Un link sin comprimir

Mostrar enlaces de Uptobox No cerrar la ventana hasta cumplir el tiempo Por favor no cerrar la ventana Enlaces de Uptobox


http://katfile.com/3794ud9vhswz
http://ul.to/oggh1u8g
https://dailyuploads.net/joe5wplaqpmp

Ver Online

https://openload.co/f/YeVBW0JUMls

>>>Descargar Tully [2018] [Latino] [HDRip] [Un link] [UB+]<<<
48 Visitas

Temas del mismo autor:

Deja un comentario