Who Am I – Ningún sistema es seguro [2014] [Latino] [DVDs] [Un link] [UB+]

Benjamin, un joven alemán genio de las computadoras, se une a un grupo de hackers subversivo que quiere hacerse notar en el escenario del mundo.

Título original: Who Am I – Kein System ist sicher
Año: 2014
Duración: 102 min.
País: Alemania Alemania
Dirección: Baran bo Odar
Guion: Jantje Friese, Baran bo Odar
Música: Michael Kamm
Fotografía: Nikolaus Summerer
Reparto: Tom Schilling, Elyas M’Barek, Wotan Wilke Möhring, Antoine Monot Jr., Hannah Herzsprung, Stephan Kampwirth, Trine Dyrholm, Leopold Hornung, Katharina Matz, Leonard Carow, Arndt Schwering-Sohnrey
Productora: Wiedemann, Berg Filmproduktion / Seven Pictures / Deutsche Columbia Pictures Film Produktion
Género: Thriller | Internet / Informática. Thriller psicológico

General
Complete name : wh0.4m.1.2015.dvds.latino.avi
Format : AVI
Format/Info : Audio Video Interleave
File size : 1.34 GiB
Duration : 1 h 41 min
Overall bit rate : 1 884 kb/s
Writing library : VirtualDub build 35491/release
IsTruncated : Yes
Video
ID : 0
Format : MPEG-4 Visual
Format profile : Advanced Simple@L5
Format settings : BVOP2
Format settings, BVOP : 2
Format settings, QPel : No
Format settings, GMC : No warppoints
Format settings, Matrix : Default (H.263)
Muxing mode : Packed bitstream
Codec ID : XVID
Codec ID/Hint : XviD
Duration : 1 h 41 min
Bit rate : 1 744 kb/s
Width : 720 pixels
Height : 298 pixels
Display aspect ratio : 2.40:1
Frame rate : 29.970 (30000/1001) FPS
Color space : YUV
Chroma subsampling : 4:2:0
Bit depth : 8 bits
Scan type : Progressive
Compression mode : Lossy
Bits/(Pixel*Frame) : 0.271
Stream size : 1.24 GiB (93%)
Writing library : XviD 67
Audio
ID : 1
Format : MPEG Audio
Format version : Version 1
Format profile : Layer 3
Format settings : Joint stereo / MS Stereo
Codec ID : 55
Codec ID/Hint : MP3
Duration : 1 h 41 min
Bit rate mode : Constant
Bit rate : 128 kb/s
Channel(s) : 2 channels
Sampling rate : 48.0 kHz
Compression mode : Lossy
Stream size : 93.2 MiB (7%)
Alignment : Split accross interleaves
Interleave, duration : 33 ms (1.00 video frame)
Interleave, preload duratio : 500 ms

Un link sin comprimir

http://katfile.com/zdxdy3pdrago
http://ul.to/prqjce70
https://dailyuploads.net/n72b2p6e1gsb

Mostrar enlaces de Uptobox No cerrar la ventana hasta cumplir el tiempo Por favor no cerrar la ventana Enlaces de Uptobox

Ver Online

https://openload.co/f/csc2Cok8RB4

>>>Descargar Who Am I – Ningún sistema es seguro [2014] [Latino] [DVDs] [Un link] [UB+]<<<
92 Visitas

Temas del mismo autor:

Deja un comentario